Results 1 to 1 of 1
  1. #1
    Banned www.desirulez.net
    Join Date
    Feb 2011
    Posts
    2,003

    T

    Default The Dirty Picture(2011) - Untouched Scam - MPEG - 1CD - Team AF

    Follow us on Social Media







    The Dirty Picture(2011) - Untouched Scam - MPEG - 1CD - Team AF

    Code:
    Format                           : MPEG-PS
    File size                        : 749 MiB
    Duration                         : 2h 10mn
    Overall bit rate                 : 803 Kbps
    
    Video
    ID                               : 224 (0xE0)
    Format                           : MPEG Video
    Format version                   : Version 2
    Format profile                   : [email protected]
    Format settings, BVOP            : Yes
    Format settings, Matrix          : Default
    Format settings, GOP             : M=3, N=12
    Duration                         : 2h 10mn
    Bit rate mode                    : Variable
    Bit rate                         : 659 Kbps
    Maximum bit rate                 : 2 519 Mbps
    Width                            : 352 pixels
    Height                           : 288 pixels
    Display aspect ratio             : 4:3
    Frame rate                       : 25.000 fps
    Standard                         : PAL
    Color space                      : YUV
    Chroma subsampling               : 4:2:0
    Bit depth                        : 8 bits
    Scan type                        : Progressive
    Compression mode                 : Lossy
    Bits/(Pixel*Frame)               : 0.260
    Stream size                      : 615 MiB (82%)
    
    Audio
    ID                               : 192 (0xC0)
    Format                           : MPEG Audio
    Format version                   : Version 1
    Format profile                   : Layer 2
    Duration                         : 2h 10mn
    Bit rate mode                    : Constant
    Bit rate                         : 128 Kbps
    Channel(s)                       : 2 channels
    Sampling rate                    : 44.1 KHz
    Compression mode                 : Lossy
    Stream size                      : 119 MiB (16%)




    Single Link
    Code:
    http://www.sendmyway.com/798ssn567dtl
    
    http://www.fileserve.com/file/c7t9ZJF
    
    http://www.uploadstation.com/file/e3VSvXs
    
    http://ul.to/qpljcnwg
    
    http://www.filesonic.com/file/4067657264

 

 

Posting Permissions

  • You may not post new threads
  • You may not post replies
  • You may not post attachments
  • You may not edit your posts
  •