Results 1 to 1 of 1
  1. #1
    Super Member www.desirulez.net
    Join Date
    Nov 2011
    Posts
    388

    T

    Default DAM 999 (2011) SCAM Rip XviD MP3 1CD [TNG]

    Follow us on Social Media







    DAM 999 (2011) SCAM Rip XviD MP3 1CD [TNG]


    /Info : Audio Video Interleave
    File size : 794 MiB
    Duration : 1h 37mn
    Overall bit rate : 1 144 Kbps
    Writing application : Lavf52.39.1

    Video
    ID : 0
    Format : xvid
    Codec ID : xvid
    Duration : 1h 37mn
    Bit rate : 1 067 Kbps
    Width : 588 pixels
    Height : 266 pixels
    Display aspect ratio : 2.2:1
    Frame rate : 25.000 fps
    Bits/(Pixel*Frame) : 0.273
    Stream size : 741 MiB (93%)

    Audio
    ID : 1
    Format : MPEG Audio
    Format version : Version 1
    Format profile : Layer 3
    Mode : Joint stereo
    Mode extension : MS Stereo
    Codec ID : 55
    Codec ID/Hint : MP3
    Duration : 1h 37mn
    Bit rate mode : Constant
    Bit rate : 64.0 Kbps
    Channel(s) : 2 channels
    Sampling rate : 48.0 KHz
    Compression mode : Lossy
    Stream size : 44.4 MiB (6%)
    Alignment : Aligned on interleaves
    Interleave, duration : 24 ms (0.60 video frame)
    Interleave, preload duration : 24 ms





    NOTE: IF YOUR THINKING Of BUYING PREMIUM..PLEASE GET IT FROM FILESONIC[my link Below]
    IF YOUR DOWNLOADING NORMALLY PLEASE USE OTHER HOSTS







    Code:
    http://www.filesonic.com/file/4022013325/999.Dam.2011.1CD.SCAM.XviD.MP3-SDL.avi


    Code:
    http://www.fileserve.com/file/SESpbpF/999.Dam.2011.1CD.SCAM.XviD.MP3-SDL.avi



 

 

Posting Permissions

  • You may not post new threads
  • You may not post replies
  • You may not post attachments
  • You may not edit your posts
  •