Results 1 to 1 of 1
  1. #1
    dR Rockers www.desirulez.net
    Join Date
    Apr 2011
    Posts
    192

    T

    Thumbs down Dam 999 (2011) 700MB SCam 700MB

    Follow us on Social Media







    Dam 999 (2011) 700MB SCam 700MB









    Code:
    
    IMDb
    http://www.imdb.com/title/tt1656171/
    General
    Complete name: Dam_999__-_2011_-_S-CAM_MPG_-_Team_IcTv_Exclusive.mpg
    Format : MPEG-PS
    File size: 678 MiB
    Duration : 1h 37mn
    Overall bit rate mode: Variable
    Overall bit rate : 978 Kbps
    Writing library: encoded by TMPGEnc Video Mastering Works 5 Version. 5.0.5.32
    
    Video
    ID : 224 (0xE0)
    Format : MPEG Video
    Format version : Version 1
    Format settings, BVOP: Yes
    Format settings, Matrix: Custom
    Duration : 1h 37mn
    Bit rate mode: Variable
    Bit rate : 894 Kbps
    Maximum bit rate : 899 Kbps
    Width: 352 pixels
    Height : 288 pixels
    Display aspect ratio : 4:3
    Frame rate : 25.000 fps
    Standard : PAL
    Color space: YUV
    Bit depth: 8 bits
    Scan type: Progressive
    Compression mode : Lossy
    Bits/(Pixel*Frame) : 0.353
    Stream size: 621 MiB (91%)
    Writing library: TMPGEnc Video Mastering Works 5 Version. 5.0.5.32
    
    Audio
    ID : 192 (0xC0)
    Format : MPEG Audio
    Format version : Version 1
    Format profile : Layer 2
    Duration : 1h 37mn
    Bit rate mode: Constant
    Bit rate : 64.0 Kbps
    Channel(s) : 2 channels
    Sampling rate: 48.0 KHz
    Compression mode : Lossy
    Stream size: 44.4 MiB (7%)

    Fileserve - Filesonic - Filepost - Filejungle
    Code:
    http://www.fileserve.com/file/JbH5UPu/Dam_999__-_2011_-_S-CAM_MPG_-_Team_IcTv_Exclusive.mpg
    
    http://www.filesonic.com/file/4017721803/Dam_999__-_2011_-_S-CAM_MPG_-_Team_IcTv_Exclusive.mpg
    
    http://www.filejungle.com/f/rPhFue/Dam_999__-_2011_-_S-CAM_MPG_-_Team_IcTv_Exclusive.mpg
    
    http://filepost.com/files/fee137d9/Dam_999__-_2011_-_S-CAM_MPG_-_Team_IcTv_Exclusive.mpg

    400MB LINKS

    Code:
    http://www.fileserve.com/file/nKErukn/Dam_999__-_2011_-_S-CAM_MPG_-_Team_IcTv_Exclusive.mpg.part2.rar
    http://www.fileserve.com/file/fPgh5uU/Dam_999__-_2011_-_S-CAM_MPG_-_Team_IcTv_Exclusive.mpg.part1.rar
    Code:
    http://www.filesonic.com/file/4017776663/Dam_999__-_2011_-_S-CAM_MPG_-_Team_IcTv_Exclusive.mpg.part2.rar
    http://www.filesonic.com/file/4017787543/Dam_999__-_2011_-_S-CAM_MPG_-_Team_IcTv_Exclusive.mpg.part1.rar
    Code:
    http://filepost.com/files/338a7534/Dam_999__-_2011_-_S-CAM_MPG_-_Team_IcTv_Exclusive.mpg.part1.rar
    http://filepost.com/files/62e3ee99/Dam_999__-_2011_-_S-CAM_MPG_-_Team_IcTv_Exclusive.mpg.part2.rar
    Code:
    http://www.filejungle.com/f/xVwUet/Dam_999__-_2011_-_S-CAM_MPG_-_Team_IcTv_Exclusive.mpg.part1.rar
    http://www.filejungle.com/f/hkF7Ge/Dam_999__-_2011_-_S-CAM_MPG_-_Team_IcTv_Exclusive.mpg.part2.rar
    Exclusive ReleaseR

 

 

Posting Permissions

  • You may not post new threads
  • You may not post replies
  • You may not post attachments
  • You may not edit your posts
  •