Results 1 to 1 of 1
  1. #1
    dR Contributor www.desirulez.net
    Join Date
    Jan 2011
    Posts
    2,299

    T

    Smile Bodyguard (2011) - NTSC - Untouched - ScamRip - VOB - MM [IcTv Exclusive]

    Follow us on Social Media










    Format : MPEG-PS
    File size : 726 MiB
    Duration : 2h 3mn
    Overall bit rate : 822 Kbps

    Video
    ID : 224 (0xE0)
    Format : MPEG Video
    Format version : Version 2
    Format profile : [email protected]
    Format settings, BVOP : Yes
    Format settings, Matrix : Default
    Format settings, GOP : M=3, N=13
    Duration : 2h 3mn
    Bit rate mode : Variable
    Bit rate : 549 Kbps
    Maximum bit rate : 9 544 Kbps
    Width : 352 pixels
    Height : 288 pixels
    Display aspect ratio : 16:9
    Frame rate : 25.000 fps
    Standard : PAL
    Color space : YUV
    Chroma subsampling : 4:2:0
    Bit depth : 8 bits
    Scan type : Progressive
    Compression mode : Lossy
    Bits/(Pixel*Frame) : 0.217
    Stream size : 485 MiB (67%)

    Audio
    ID : 189 (0xBD)-128 (0x80)
    Format : AC-3
    Format/Info : Audio Coding 3
    Mode extension : CM (complete main)
    Muxing mode : DVD-Video
    Duration : 2h 3mn
    Bit rate mode : Constant
    Bit rate : 256 Kbps
    Channel(s) : 2 channels
    Channel positions : Front: L R
    Sampling rate : 48.0 KHz
    Bit depth : 16 bits
    Compression mode : Lossy
    Delay relative to video : 80ms
    Stream size : 226 MiB (31%)




    Credits to "IcTv"



    Code:
    http://cramit.in/0zfd5wtvl8rh


 

 

Posting Permissions

  • You may not post new threads
  • You may not post replies
  • You may not post attachments
  • You may not edit your posts
  •