Results 1 to 2 of 2
  1. #1
    Banned www.desirulez.net
    Join Date
    Jan 2010
    Posts
    2,522

    T

    Default Bodyguard (2011) 588MB Super Cam Rip XviD

    Follow us on Social Media







    Bodyguard (2011) 588MB Super Cam Rip XviD




    Format : AVI
    Format/Info : Audio Video Interleave
    File size : 588 MiB
    Duration : 2h 3mn
    Overall bit rate : 665 Kbps
    Writing application : Lavf52.93.0
    Writing library : VirtualDub build 32842/release

    Video
    ID : 0
    Format : MPEG-4 Visual
    Format profile : Advanced [email protected]
    Format settings, BVOP : 2
    Format settings, QPel : No
    Format settings, GMC : No warppoints
    Format settings, Matrix : Default (H.263)
    Muxing mode : Packed bitstream
    Codec ID : XVID
    Codec ID/Hint : XviD
    Duration : 2h 3mn
    Bit rate : 523 Kbps
    Width : 602 pixels
    Height : 272 pixels
    Display aspect ratio : 2.2:1
    Frame rate : 29.970 fps
    Color space : YUV
    Chroma subsampling : 4:2:0
    Bit depth : 8 bits
    Scan type : Progressive
    Compression mode : Lossy
    Bits/(Pixel*Frame) : 0.107
    Stream size : 462 MiB (79%)
    Writing library : XviD 64

    Audio
    ID : 1
    Format : MPEG Audio
    Format version : Version 1
    Format profile : Layer 2
    Codec ID : 50
    Duration : 2h 3mn
    Bit rate mode : Constant
    Bit rate : 128 Kbps
    Channel(s) : 2 channels
    Sampling rate : 48.0 KHz
    Compression mode : Lossy
    Stream size : 113 MiB (19%)
    Alignment : Aligned on interleaves
    Interleave, duration : 24 ms (0.72 video frame)
    Interleave, preload duration : 504 ms






















    Code:
    http://www.filesonic.com/folder/10851091
    
    OR
    
    http://www.filesonic.com/file/1821279111/Bodyguard_(2011)_Super_Cam_Rip_XviD.avi

    Code:
    http://www.wupload.com/file/132276595/Bodyguard_(2011)_Super_Cam_Rip_XviD.avi

    Code:
    http://www.fileserve.com/file/akA7c5H/Bodyguard_(2011)_Super_Cam_Rip_XviD.avi








  2. #2
    Hot Member www.desirulez.net
    Join Date
    Aug 2011
    Posts
    3,132

    T

    Default

    is this movie have english subtitle yet plz reply somebody

 

 

Posting Permissions

  • You may not post new threads
  • You may not post replies
  • You may not post attachments
  • You may not edit your posts
  •