Results 1 to 1 of 1
  1. #1
    Hot Member www.desirulez.net
    Join Date
    Dec 2011
    Posts
    559

    T

    Thumbs up Agneepath (2012) - UntoucheD - YamRaj - SCAM - Rip - MP2 - MPEG - 1CD - [Team AF]

    Follow us on Social Media









    Code:
    Format                                   : MPEG-PS
    File size                                : 699 MiB
    Duration                                 : 2h 26mn
    Overall bit rate mode                    : Variable
    Overall bit rate                         : 667 Kbps
    Writing library                          : encoded by TMPGEnc Video Mastering Works 5 Version. 5.0.5.32
    
    Video
    ID                                       : 224 (0xE0)
    Format                                   : MPEG Video
    Format version                           : Version 1
    Format settings, BVOP                    : Yes
    Format settings, Matrix                  : Custom
    Duration                                 : 2h 26mn
    Bit rate mode                            : Variable
    Bit rate                                 : 590 Kbps
    Maximum bit rate                         : 593 Kbps
    Width                                    : 352 pixels
    Height                                   : 288 pixels
    Display aspect ratio                     : 4:3
    Frame rate                               : 25.000 fps
    Standard                                 : PAL
    Color space                              : YUV
    Bit depth                                : 8 bits
    Scan type                                : Progressive
    Compression mode                         : Lossy
    Bits/(Pixel*Frame)                       : 0.233
    Stream size                              : 618 MiB (88%)
    Writing library                          : TMPGEnc Video Mastering Works 5 Version. 5.0.5.32
    
    Audio
    ID                                       : 192 (0xC0)
    Format                                   : MPEG Audio
    Format version                           : Version 1
    Format profile                           : Layer 2
    Duration                                 : 2h 26mn
    Bit rate mode                            : Constant
    Bit rate                                 : 64.0 Kbps
    Channel(s)                               : 2 channels
    Sampling rate                            : 48.0 KHz
    Compression mode                         : Lossy
    Stream size                              : 67.0 MiB (10%)


    Credits : Nyad



    Single Links:-

    Code:
    http://www.filefactory.com/file/c2d7745/n/Agneepath.2012.SCAM.UntoucheD.MPG.1CD-SC.mpg
    Code:
    http://turbobit.net/qdnv3jo58tqe/Agneepath.2012.SCAM.UntoucheD.MPG.1CD-SC.mpg.html
    Code:
    http://ul.to/j287ubcp/Agneepath.2012.SCAM.UntoucheD.MPG.1CD-SC.mpg
    Split Links :-

    Code:
    http://www.filefactory.com/file/c2d763a/n/Agneepath.2012.SCAM.UntoucheD.MPG.1CD-SC.mpg.001
    http://www.filefactory.com/file/c2d7672/n/Agneepath.2012.SCAM.UntoucheD.MPG.1CD-SC.mpg.002
    http://www.filefactory.com/file/c2d7700/n/Agneepath.2012.SCAM.UntoucheD.MPG.1CD-SC.mpg.003
    http://www.filefactory.com/file/c2d774c/n/Agneepath.2012.SCAM.UntoucheD.MPG.1CD-SC.mpg.004
    http://www.filefactory.com/file/c2d78a1/n/Agneepath.2012.SCAM.UntoucheD.MPG.1CD-SC.mpg.005
    http://www.filefactory.com/file/c2d7751/n/Agneepath.2012.SCAM.UntoucheD.MPG.1CD-SC.mpg.006
    http://www.filefactory.com/file/c2d776b/n/Agneepath.2012.SCAM.UntoucheD.MPG.1CD-SC.mpg.007
    Code:
    http://turbobit.net/o6trnwpgg5ay/Agneepath.2012.SCAM.UntoucheD.MPG.1CD-SC.mpg.001.html
    http://turbobit.net/mjlwdfaeikbm/Agneepath.2012.SCAM.UntoucheD.MPG.1CD-SC.mpg.002.html
    http://turbobit.net/ehnuak13g171/Agneepath.2012.SCAM.UntoucheD.MPG.1CD-SC.mpg.003.html
    http://turbobit.net/tlrz7vhkn6xu/Agneepath.2012.SCAM.UntoucheD.MPG.1CD-SC.mpg.004.html
    http://turbobit.net/8iin1aqp4a08/Agneepath.2012.SCAM.UntoucheD.MPG.1CD-SC.mpg.005.html
    http://turbobit.net/6qatmu80eepw/Agneepath.2012.SCAM.UntoucheD.MPG.1CD-SC.mpg.006.html
    http://turbobit.net/bpc1g2gm7c83/Agneepath.2012.SCAM.UntoucheD.MPG.1CD-SC.mpg.007.html
    Code:
    http://ul.to/1ku3e9eb/Agneepath.2012.SCAM.UntoucheD.MPG.1CD-SC.mpg.001
    http://ul.to/t3paz9cg/Agneepath.2012.SCAM.UntoucheD.MPG.1CD-SC.mpg.002
    http://ul.to/gyl3c8n7/Agneepath.2012.SCAM.UntoucheD.MPG.1CD-SC.mpg.003
    http://ul.to/l0kb0n4z/Agneepath.2012.SCAM.UntoucheD.MPG.1CD-SC.mpg.004
    http://ul.to/3u2abpom/Agneepath.2012.SCAM.UntoucheD.MPG.1CD-SC.mpg.005
    http://ul.to/1x9iq3fb/Agneepath.2012.SCAM.UntoucheD.MPG.1CD-SC.mpg.006
    http://ul.to/nyscngoe/Agneepath.2012.SCAM.UntoucheD.MPG.1CD-SC.mpg.007

 

 

Posting Permissions

  • You may not post new threads
  • You may not post replies
  • You may not post attachments
  • You may not edit your posts
  •