Results 1 to 1 of 1
  1. #1

    Arrow 7 Khoon Maaf (2011) Super Cam Xvid Rip 1GB Avi D3MT [1LINK]

    Follow us on Social Media







    7 Khoon Maaf (2011) Super Cam Xvid Rip 1GB Avi D3MT[+1Links]



    Cast :
    Priyanka Chopra, Neil Nitin Mukesh, Naseeruddin Shah, John Abraham, Irrfan Khan, Usha Uthup, Annu Kapoor


    Format : AVI
    Format/Info : Audio Video Interleave
    File size : 1.08 GiB
    Duration : 2h 19mn
    Overall bit rate : 1 104 Kbps
    Writing application : Lavf52.39.1
    Writing library : Boilsoft AVI tool build 1/release

    Video
    ID : 0
    Format : xvid
    Codec ID : xvid
    Duration : 2h 19mn
    Bit rate : 1 027 Kbps
    Width : 624 pixels
    Height : 352 pixels
    Display aspect ratio : 16:9
    Frame rate : 25.000 fps
    Bits/(Pixel*Frame) : 0.187
    Stream size : 1.00 GiB (93%)

    Audio
    ID : 1
    Format : MPEG Audio
    Format version : Version 1
    Format profile : Layer 3
    Mode : Joint stereo
    Mode extension : MS Stereo
    Codec ID : 55
    Codec ID/Hint : MP3
    Duration : 2h 19mn
    Bit rate mode : Constant
    Bit rate : 64.0 Kbps
    Channel(s) : 2 channels
    Sampling rate : 48.0 KHz
    Compression mode : Lossy
    Stream size : 63.9 MiB (6%)
    Alignment : Aligned on interleaves
    Interleave, duration : 24 ms (0.60 video frame)
    Interleave, preload duration : 504 ms
    Writing library : LAME3.96.1







    Download | SINGLE LINK

    Code:
    http://www.fileserve.com/file/QPvnubg/7.Khoon.Maaf.2011.Super.Cam.Xvid.Rip.D3MT.1GB.avi


    400MB PARTS


    Code:
    http://www.fileserve.com/file/gGGTr4J/7.Khoon.Maaf.2011.Super.Cam.Xvid.Rip.D3MT.1GB.part1.rar
    http://www.fileserve.com/file/69kbApZ/7.Khoon.Maaf.2011.Super.Cam.Xvid.Rip.D3MT.1GB.part2.rar
    http://www.fileserve.com/file/mStY4Kq/7.Khoon.Maaf.2011.Super.Cam.Xvid.Rip.D3MT.1GB.part3.rar

    No Password



 

 

Posting Permissions

  • You may not post new threads
  • You may not post replies
  • You may not post attachments
  • You may not edit your posts
  •