Results 1 to 1 of 1
  1. #1

    Smile 7 Khoon Maaf (2011) 350Mb - SCam Rip (New Souirce) - X264

    Follow us on Social Media









    7 Khoon Maaf (2011) 350Mb - SCam Rip - X264 (Single Link)






    Format : Matroska
    File size : 331 MiB
    Duration : 2h 19mn
    Overall bit rate : 332 Kbps
    Writing application : Lavf52.39.1
    Writing library : Lavf52.39.1

    Video
    ID : 1
    Format : MPEG-4 Visual
    Format profile : [email protected]
    Format settings, BVOP : No
    Format settings, QPel : No
    Format settings, GMC : No warppoints
    Format settings, Matrix : Default (H.263)
    Codec ID : V_MPEG4/ISO/ASP
    Codec ID/Info : Advanced Simple Profile
    Duration : 2h 19mn
    Bit rate : 197 Kbps
    Width : 600 pixels
    Height : 270 pixels
    Display aspect ratio : 4:3
    Frame rate mode : Constant
    Frame rate : 25.000 fps
    Color space : YUV
    Chroma subsampling : 4:2:0
    Bit depth : 8 bits
    Scan type : Progressive
    Compression mode : Lossy
    Bits/(Pixel*Frame) : 0.049
    Stream size : 197 MiB (59%)
    Writing library : Lavc52.37.0
    Language : English

    Audio
    ID : 2
    Format : MPEG Audio
    Format version : Version 1
    Format profile : Layer 2
    Codec ID : A_MPEG/L2
    Codec ID/Hint : MP2
    Duration : 2h 19mn
    Bit rate mode : Constant
    Bit rate : 128 Kbps
    Channel(s) : 2 channels
    Sampling rate : 44.1 KHz
    Compression mode : Lossy
    Stream size : 128 MiB (39%)
    Language : Hindi









    DOWNLOAD FROM DUCKLOAD::
    Code:
    http://www.duckload.com/dl/CnBk2
    DOWNLOAD FROM FREAKSHARE:
    Code:
    http://freakshare.com/files/xleq11mi/7khoonmauf.mkv.html

    Credits To Original Releaser


 

 

Posting Permissions

  • You may not post new threads
  • You may not post replies
  • You may not post attachments
  • You may not edit your posts
  •