Results 1 to 1 of 1
  1. #1
    Banned www.desirulez.net
    Join Date
    Mar 2011
    Posts
    19

    T

    Default The.Tourist.2010.BDRip.XViD single link

    Follow us on Social Media







    The.Tourist.2010.BDRip.XViD single link
    • The.Tourist.2010.BDRip.XViD-




    Code:
    The.Tourist.2010.BDRip.XViD-nCODE
    
    Format                           : AVI
    Format/Info                      : Audio Video Interleave
    File size                        : 705 MiB
    Duration                         : 1h 43mn
    Overall bit rate                 : 953 Kbps
    
    Video
    ID                               : 0
    Format                           : MPEG-4 Visual
    Format profile                   : Advanced [email protected]
    Format settings, BVOP            : 2
    Format settings, QPel            : No
    Format settings, GMC             : No warppoints
    Format settings, Matrix          : Default (H.263)
    Codec ID                         : XVID
    Codec ID/Hint                    : XviD
    Duration                         : 1h 43mn
    Bit rate                         : 812 Kbps
    Width                            : 640 pixels
    Height                           : 272 pixels
    Display aspect ratio             : 2.35:1
    Frame rate                       : 23.976 fps
    Color space                      : YUV
    Chroma subsampling               : 4:2:0
    Bit depth                        : 8 bits
    Scan type                        : Progressive
    Compression mode                 : Lossy
    Bits/(Pixel*Frame)               : 0.195
    Stream size                      : 601 MiB (85%)
    Writing library                  : XviD 1.2.1 (UTC 2008-12-04)
    
    Audio
    ID                               : 1
    Format                           : MPEG Audio
    Format version                   : Version 1
    Format profile                   : Layer 3
    Codec ID                         : 55
    Codec ID/Hint                    : MP3
    Duration                         : 1h 43mn
    Bit rate mode                    : Constant
    Bit rate                         : 128 Kbps
    Channel(s)                       : 2 channels
    Sampling rate                    : 48.0 KHz
    Compression mode                 : Lossy
    Stream size                      : 94.7 MiB (13%)
    Alignment                        : Split accross interleaves
    Interleave, duration             : 24 ms (0.58 video frame)
    Writing library                  : LAME
    
    This is the re-rip, this time i have accurately translated subtitles
    and these are properly synchronized.
    
    I ripped my subtitles from the Blueray then deleted all parts we did not need
    leaving only subs for Non-English speaking parts
    
    Ive went with Verdana , size 20 subs
    
    Hope you enjoy!
    • please leave a comment after download for myself and other downloaders




















    Code:
    http://www.fileserve.com/file/s9E5Wvh/The.Tourist.2010.DVDrip.Eng_.avi




 

 

Posting Permissions

  • You may not post new threads
  • You may not post replies
  • You may not post attachments
  • You may not edit your posts
  •