Results 1 to 2 of 2
  1. #1

    Wink Kala Pani (1958) - x264 - AAC - 1CD - DVDRip - Subs - TsG

    Follow us on Social Media







    Kala Pani (1958) - x264 - AAC - 1CD - DVDRip - Subs - TsG







    Code:
    General
    Name                             : Kala Pani
    Format                           : MPEG-4
    Format profile                   : Base Media
    Codec ID                         : isom
    File size                        : 696 MiB
    Duration                         : 2h 17mn
    Overall bit rate                 : 708 Kbps
    Encoded date                     : UTC 2009-07-21 17:50:39
    Tagged date                      : UTC 2009-07-21 17:50:39
    
    
    Video
    ID                               : 1
    Format                           : AVC
    Format/Info                      : Advanced Video Codec
    Format profile                   : [email protected]
    Format settings, CABAC           : Yes
    Format settings, ReFrames        : 5 frames
    Codec ID                         : avc1
    Codec ID/Info                    : Advanced Video Coding
    Duration                         : 2h 17mn
    Bit rate mode                    : Variable
    Bit rate                         : 641 Kbps
    Maximum bit rate                 : 2 180 Kbps
    Width                            : 640 pixels
    Height                           : 480 pixels
    Display aspect ratio             : 4/3
    Frame rate mode                  : Constant
    Frame rate                       : 23.976 fps
    Resolution                       : 24 bits
    Colorimetry                      : 4:2:0
    Scan type                        : Progressive
    Bits/(Pixel*Frame)               : 0.087
    Stream size                      : 630 MiB (91%)
    Writing library                  : x264 core 68 r1179M 96e2229
    
    
    Audio
    ID                               : 2
    Format                           : AAC
    Format/Info                      : Advanced Audio Codec
    Format version                   : Version 4
    Format profile                   : LC
    Format settings, SBR             : Yes
    Format settings, PS              : No
    Codec ID                         : 40
    Duration                         : 2h 17mn
    Bit rate mode                    : Variable
    Bit rate                         : 63.8 Kbps
    Maximum bit rate                 : 76.6 Kbps
    Channel(s)                       : 6 channels
    Channel positions                : Front: L C R, Rear: L R, LFE
    Sampling rate                    : 48.0 KHz
    Resolution                       : 16 bits
    Stream size                      : 62.7 MiB (9%)
    Encoded date                     : UTC 2009-07-21 17:51:33
    Tagged date                      : UTC 2009-07-21 17:51:39





























    Rapidshare:
    Code:
    http://rapidshare.com/files/259051356/TsG.Kala_Pani.By.TuHiN.TsG.mp4.001
    http://rapidshare.com/files/259051387/TsG.Kala_Pani.By.TuHiN.TsG.mp4.002
    http://rapidshare.com/files/259051642/TsG.Kala_Pani.By.TuHiN.TsG.mp4.003
    http://rapidshare.com/files/259051457/TsG.Kala_Pani.By.TuHiN.TsG.mp4.004
    http://rapidshare.com/files/259050994/TsG.Kala_Pani.By.TuHiN.TsG.srt


    Hotfile(Free Resume Capable-like Mediafire):
    Code:
    http://hotfile.com/dl/9048300/b46356e/TsG.Kala_Pani.By.TuHiN.TsG.mp4.001.html
    http://hotfile.com/dl/9048349/1f37334/TsG.Kala_Pani.By.TuHiN.TsG.mp4.002.html
    http://hotfile.com/dl/9048352/f9cfa30/TsG.Kala_Pani.By.TuHiN.TsG.mp4.003.html
    http://hotfile.com/dl/9048336/0e8427d/TsG.Kala_Pani.By.TuHiN.TsG.mp4.004.html
    http://hotfile.com/dl/9048302/a46e3c2/TsG.Kala_Pani.By.TuHiN.TsG.srt.html


    Filefactory:
    Code:
    http://www.filefactory.com/file/ahfdbfb/n/TsG_Kala_Pani_By_TuHiN_TsG_mp4_001/
    http://www.filefactory.com/file/ahfdbgf/n/TsG_Kala_Pani_By_TuHiN_TsG_mp4_002/
    http://www.filefactory.com/file/ahfdbg9/n/TsG_Kala_Pani_By_TuHiN_TsG_mp4_003/
    http://www.filefactory.com/file/ahfdbhg/n/TsG_Kala_Pani_By_TuHiN_TsG_mp4_004/
    http://www.filefactory.com/file/ahfdbhh/n/TsG_Kala_Pani_By_TuHiN_TsG_srt/


    Megaupload:
    Code:
    http://www.megaupload.com/?d=3GNF1C2I
    http://www.megaupload.com/?d=5HFWPZKK
    http://www.megaupload.com/?d=YM1B6QBS
    http://www.megaupload.com/?d=721FA2OP
    http://www.megaupload.com/?d=KN78LWTF

    Uploaded.to:
    Code:
    http://ul.to/3x8spw/TsG.Kala_Pani.By.TuHiN.TsG.mp4.001
    http://ul.to/5u942w/TsG.Kala_Pani.By.TuHiN.TsG.mp4.002
    http://ul.to/b5gzda/TsG.Kala_Pani.By.TuHiN.TsG.mp4.003
    http://ul.to/qspibi/TsG.Kala_Pani.By.TuHiN.TsG.mp4.004
    http://ul.to/euazln/TsG.Kala_Pani.By.TuHiN.TsG.srt

  2. #2
    Coolbie www.desirulez.net
    Join Date
    Dec 2008
    Location
    England
    Posts
    5,799

    T

    Default

    thanks

 

 

Posting Permissions

  • You may not post new threads
  • You may not post replies
  • You may not post attachments
  • You may not edit your posts
  •