Results 1 to 2 of 2
  1. #1

    Wink Chhoti Bahen (1959) - DVDRip - 2CD - XviD

    Follow us on Social Media







    Chhoti Bahen (1959) - DVDRip - 2CD - XviD






    Code:
    Format                           : AVI
    Format/Info                      : Audio Video Interleave
    File size                        : 1.36 GiB
    Duration                         : 2h 38mn
    Overall bit rate                 : 1 233 Kbps
    Writing application              : VirtualDubMod 1.5.10.2 (build 2540/release)
    Writing library                  : VirtualDubMod build 2540/release
    
    Video
    Format                           : MPEG-4 Visual
    Format profile                   : Streaming [email protected]
    Format settings, BVOP            : Yes
    Format settings, QPel            : Yes
    Format settings, GMC             : No warppoints
    Format settings, Matrix          : Default
    Codec ID                         : XVID
    Codec ID/Hint                    : XviD
    Duration                         : 2h 38mn
    Bit rate                         : 1 093 Kbps
    Width                            : 656 pixels
    Height                           : 480 pixels
    Display aspect ratio             : 4/3
    Frame rate                       : 29.970 fps
    Resolution                       : 24 bits
    Colorimetry                      : 4:2:0
    Scan type                        : Progressive
    Bits/(Pixel*Frame)               : 0.116
    Stream size                      : 1.21 GiB (89%)
    Writing library                  : XviD 50
    
    Audio
    Format                           : MPEG Audio
    Format version                   : Version 1
    Format profile                   : Layer 3
    Codec ID                         : 55
    Codec ID/Hint                    : MP3
    Duration                         : 2h 38mn
    Bit rate mode                    : Constant
    Bit rate                         : 128 Kbps
    Minimum bit rate                 : 128 Kbps
    Channel(s)                       : 2 channels
    Sampling rate                    : 48.0 KHz
    Resolution                       : 16 bits
    Stream size                      : 145 MiB (10%)
    Alignment                        : Aligned on interleaves
    Interleave, duration             : 33 ms (1.00 video frame)
    Interleave, preload duration     : 504 ms
    Writing library                  : LAME3.98r
    Encoding settings                : CBR
    Source:Chhoti Bahen 1959 DVD9 NTSC Untouched DDR




























    Code:
    http://rapidshare.com/files/197910613/ChhotiBahen_1959_By_Tuhin_Shakil_TS.avi.001
    http://rapidshare.com/files/197910768/ChhotiBahen_1959_By_Tuhin_Shakil_TS.avi.002
    http://rapidshare.com/files/197911136/ChhotiBahen_1959_By_Tuhin_Shakil_TS.avi.003
    http://rapidshare.com/files/197911351/ChhotiBahen_1959_By_Tuhin_Shakil_TS.avi.004
    http://rapidshare.com/files/197911806/ChhotiBahen_1959_By_Tuhin_Shakil_TS.avi.005
    http://rapidshare.com/files/197911959/ChhotiBahen_1959_By_Tuhin_Shakil_TS.avi.006
    http://rapidshare.com/files/197912495/ChhotiBahen_1959_By_Tuhin_Shakil_TS.avi.007
    http://rapidshare.com/files/197912359/ChhotiBahen_1959_By_Tuhin_Shakil_TS.avi.008

  2. #2
    Hot Member www.desirulez.net
    Join Date
    Apr 2009
    Location
    London
    Posts
    1,924

    T

    Default

    wow so old........
    Make A Reply... Its A Gift! ~Give A Rep... Its A Grace! ~Get A Rep... Its A Virtue!
    ~But Try Not To Be A Leecher ... Its An HONOR...



 

 

Posting Permissions

  • You may not post new threads
  • You may not post replies
  • You may not post attachments
  • You may not edit your posts
  •