Results 1 to 1 of 1
  1. #1
    Hot Member www.desirulez.net
    Join Date
    Sep 2009
    Posts
    1,215

    T

    Thumbs up Zee Rishtey Awards 2011 Main Event 18th Dec InD

    Follow us on Social Media










    Code:
    General
    Complete name                    : D:\Files-2\!!! tv\Zee Rishtey Awards 2011 Main Event 18th Dec InD Desi9.wmv
    Format                           : Windows Media
    File size                        : 881 MiB
    Duration                         : 2h 33mn
    Overall bit rate mode            : Constant
    Overall bit rate                 : 801 Kbps
    Maximum Overall bit rate         : 806 Kbps
    Encoded date                     : UTC 2011-12-18 15:01:34.917
    
    Video
    ID                               : 2
    Format                           : VC-1
    Format profile                   : MP
    Codec ID                         : WMV3
    Codec ID/Info                    : Windows Media Video 9
    Codec ID/Hint                    : WMV3
    Description of the codec         : Windows Media Video 9
    Duration                         : 2h 33mn
    Bit rate mode                    : Constant
    Bit rate                         : 700 Kbps
    Width                            : 512 pixels
    Height                           : 392 pixels
    Display aspect ratio             : 4:3
    Frame rate                       : 25.000 fps
    Bit depth                        : 8 bits
    Scan type                        : Progressive
    Compression mode                 : Lossy
    Bits/(Pixel*Frame)               : 0.140
    Stream size                      : 770 MiB (87%)
    Language                         : English (US)
    
    Audio
    ID                               : 1
    Format                           : WMA
    Format version                   : Version 2
    Codec ID                         : 161
    Codec ID/Info                    : Windows Media Audio
    Description of the codec         : Windows Media Audio 9.1 -  96 kbps, 44 kHz, stereo (A/V) 1-pass CBR
    Duration                         : 2h 33mn
    Bit rate mode                    : Constant
    Bit rate                         : 96.0 Kbps
    Channel(s)                       : 2 channels
    Sampling rate                    : 44.1 KHz
    Bit depth                        : 16 bits
    Stream size                      : 106 MiB (12%)
    Language                         : English (US)
    Code:
    http://www.fileserve.com/file/Eukqj5j
    Code:
    http://www.filesonic.com/file/4291780484/Zee_Rishtey_Awards_2011_Main_Event_18th_Dec_InD_Desi9.wmv
    Code:
    http://www.uploadstation.com/file/4mwecDH/Zee_Rishtey_Awards_2011_Main_Event_18th_Dec_InD_Desi9.wmv





 

 

Posting Permissions

  • You may not post new threads
  • You may not post replies
  • You may not post attachments
  • You may not edit your posts
  •