Results 1 to 1 of 1
  1. #1

    Default Global Indian Music Awards (GiMA) - 05th Dec 2010 - Single link Dwld

    Follow us on Social Media







    **************************************************
    Global Indian Music Awards (GiMA) - 05th Dec 2010
    **************************************************
    General
    Complete name : Global Indian Music Awards (GiMA) - 05th Dec 2010
    Format : AVI
    Format/Info : Audio Video Interleave
    File size : 1.50 GiB
    Duration : 2h 11mn
    Overal bit rate : 1000 Kbps
    Writing library : Boilsoft Joiner build 2411/release

    Video
    Format : MPEG-4 Visual
    Format profile : [email protected]
    Format settings, BVOP : No
    Format settings, QPel : No
    Format settings, GMC : No warppoints
    Format settings, Matrix : Default
    Codec ID : XVID
    Codec ID/Hint : XviD
    Duration : 2h 11mn
    Bit rate : 1000 Kbps
    Width : 512 pixels
    Height : 384 pixels
    Display aspect ratio : 4/3
    Frame rate : 25.000 fps
    Resolution : 8 bits
    Colorimetry : 4:2:0
    Scan type : Progressive
    Bits/(Pixel*Frame) : 0.305
    Stream size : 1.38 GiB
    Writing library : Lavc51.54.0

    Audio
    Format : MPEG Audio
    Format version : Version 1
    Format profile : Layer 3
    Codec ID : 55
    Codec ID/Hint : MP3
    Duration : 2h 11mn
    Bit rate mode : Constant
    Bit rate : 128 Kbps
    Channel(s) : 2 channels
    Sampling rate : 44.1 KHz
    Resolution : 16 bits
    Stream size : 120 MiB




    DOwnload Link::

    Code:
    part 1 : http://www.duckload.com/dl/BTfA2
    part 2 : http://www.duckload.com/dl/iTfA2
    SinGle Link:
    Code:
    http://www.duckload.com/dl/lnfA2

 

 

Posting Permissions

  • You may not post new threads
  • You may not post replies
  • You may not post attachments
  • You may not edit your posts
  •