Results 1 to 1 of 1
  1. #1
    Banned www.desirulez.net
    Join Date
    Jan 2010
    Posts
    2,522

    T

    Thumbs up Unstoppable 2010 R5 Hindi Dubbed 700Mb With Sample

    Follow us on Social Media







    Unstoppable 2010 R5 Hindi Dubbed 700Mb With Sample


    General
    Complete name : F:\EXDESI.COM\Unstoppable 2010 R5 Hindi
    Format : Matroska
    File size : 657 MiB
    Duration : 1h 38mn
    Overall bit rate : 934 Kbps
    Movie name : Unstoppable 2010 R5 Hindi
    Encoded date : UTC 2010-12-18 16:46:33
    Writing application : mkvmerge v4.2.0 ('No Talking') built on Jul 28 2010 18:38:23
    Writing library : libebml v1.0.0 + libmatroska v1.0.0
    Video
    ID : 1
    Format : AVC
    Format/Info : Advanced Video Codec
    Format profile : [email protected]
    Format settings, CABAC : Yes
    Format settings, ReFrames : 3 frames
    Muxing mode : Container [email protected]
    Codec ID : V_MPEG4/ISO/AVC
    Duration : 1h 38mn
    Bit rate : 787 Kbps
    Width : 720 pixels
    Height : 304 pixels
    Display aspect ratio : 2.35:1
    Frame rate : 24.000 fps
    Resolution : 24 bits
    Colorimetry : 4:2:0
    Scan type : Progressive
    Bits/(Pixel*Frame) : 0.150
    Stream size : 554 MiB (84%)
    Title : imkhan
    Writing library : x264 core 104 r1683 62997d6
    Encoding settings : cabac=1 / ref=3 / deblock=1:0:0 / analyse=0x3:0x133 / me=umh / subme=7 / psy=1 / psy_rd=1.00:0.00 / mixed_ref=1 / me_range=16 / chroma_me=1 / trellis=1 / 8x8dct=1 / cqm=0 / deadzone=21,11 / fast_pskip=1 / chroma_qp_offset=-2 / threads=3 / sliced_threads=0 / nr=0 / decimate=1 / interlaced=0 / constrained_intra=0 / bframes=3 / b_pyramid=0 / b_adapt=1 / b_bias=0 / direct=1 / weightb=1 / open_gop=0 / weightp=2 / keyint=240 / keyint_min=24 / scenecut=40 / intra_refresh=0 / rc_lookahead=40 / rc=crf / mbtree=1 / crf=22.0 / qcomp=0.60 / qpmin=10 / qpmax=51 / qpstep=4 / vbv_maxrate=25000 / vbv_bufsize=25000 / crf_max=0.0 / ip_ratio=1.40 / aq=1:1.00 / nal_hrd=vbr
    Language : Hindi
    Audio
    ID : 2
    Format : MPEG Audio
    Format version : Version 1
    Format profile : Layer 3
    Codec ID : A_MPEG/L3
    Codec ID/Hint : MP3
    Duration : 1h 38mn
    Bit rate mode : Constant
    Bit rate : 128 Kbps
    Channel(s) : 2 channels
    Sampling rate : 44.1 KHz
    Resolution : 16 bits
    Stream size : 90.1 MiB (14%)
    Title : imkhan
    Language : Hindi









    Code:
    http://hotfile.com/dl/94123150/8745888/Uspt.2010.DVDRIP.Hindi.By.Deejam.part1.rar.html
    http://hotfile.com/dl/94123256/b49c8aa/Uspt.2010.DVDRIP.Hindi.By.Deejam.part2.rar.html
    http://hotfile.com/dl/94123231/a8157a2/Uspt.2010.DVDRIP.Hindi.By.Deejam.part3.rar.html
    http://hotfile.com/dl/94122955/71ea541/Uspt.2010.DVDRIP.Hindi.By.Deejam.part4.rar.html
    
    
    or
    
    
    
    http://www.fileserve.com/file/qgpJxBJ/Uspt.2010.DVDRIP.Hindi.By.Deejam.part4.rar
    http://www.fileserve.com/file/XbbTzAV/Uspt.2010.DVDRIP.Hindi.By.Deejam.part3.rar
    http://www.fileserve.com/file/zAg3Ka5/Uspt.2010.DVDRIP.Hindi.By.Deejam.part2.rar
    http://www.fileserve.com/file/m4qehQf/Uspt.2010.DVDRIP.Hindi.By.Deejam.part1.rar

    SINGLE lINK


    Code:
    
    
    http://www.fileserve.com/file/tETFbyE/unUspt.2010.DVDRIP.Hindi.By.Deejam.rar

 

 

Posting Permissions

  • You may not post new threads
  • You may not post replies
  • You may not post attachments
  • You may not edit your posts
  •