Results 1 to 1 of 1
  1. #1
    Banned www.desirulez.net
    Join Date
    Jun 2011
    Posts
    229

    T

    Post Diljale -2011- MPG Cam - THE DESI BACHA -

    Follow us on Social Media








    ~ Diljale~ -2011- MPG Cam-

    - THE DESI BACHA -



    Code:
    Format                           : MPEG-PS
    File size                        : 766 MiB
    Duration                         : 2h 45mn
    Overall bit rate                 : 645 Kbps
    
    Video
    ID                               : 224 (0xE0)
    Format                           : MPEG Video
    Format version                   : Version 2
    Format profile                   : [email protected]
    Format settings, BVOP            : Yes
    Format settings, Matrix          : Default
    Format settings, GOP             : M=3, N=13
    Duration                         : 2h 45mn
    Bit rate mode                    : Variable
    Bit rate                         : 504 Kbps
    Nominal bit rate                 : 9 072 Kbps
    Width                            : 352 pixels
    Height                           : 288 pixels
    Display aspect ratio             : 4:3
    Frame rate                       : 25.000 fps
    Standard                         : PAL
    Color space                      : YUV
    Chroma subsampling               : 4:2:0
    Bit depth                        : 8 bits
    Scan type                        : Progressive
    Compression mode                 : Lossy
    Bits/(Pixel*Frame)               : 0.199
    Stream size                      : 598 MiB (78%)
    
    Audio
    ID                               : 192 (0xC0)
    Format                           : MPEG Audio
    Format version                   : Version 1
    Format profile                   : Layer 2
    Duration                         : 2h 45mn
    Bit rate mode                    : Constant
    Bit rate                         : 128 Kbps
    Channel(s)                       : 2 channels
    Sampling rate                    : 48.0 KHz
    Compression mode                 : Lossy
    Stream size                      : 152 MiB (20%)













    Code:
    http://www.fileserve.com/file/uq34vxy

    Code:
    http://www.filesonic.in/file/1503626501/Diljale%20%282011%29%20Mpg%20Cam.mpg

    Code:
    http://www.wupload.com/file/64296632/Diljale_(2011)_Mpg_Cam.mpg

 

 

Posting Permissions

  • You may not post new threads
  • You may not post replies
  • You may not post attachments
  • You may not edit your posts
  •